What's new

Welcome to Download Forum

Join us now to get access to all our features. Once registered and logged in, you will be able to create topics, post replies to existing threads, give reputation to your fellow members, get your own private messenger, and so, so much more. It's also quick and totally free, so what are you waiting for?

Sell: Olympique Lyonnais — AC Ajaccio (05.08.2022) (BT Sport 1 HD, 1080i)

GambitDAL

New member
Normal Users
Joined
Jan 6, 2022
Messages
9
Reaction score
0
Points
3

Olympique Lyonnais — AC Ajaccio (05.08.2022)​


Only for sell. My record.

Channel: BT Sport 1 HD
Duration: 01:56:39
Size: 13.4 GB

Language: English

Video: H.264, 1920 × 1080i, 25 fps, 15.5 Mbps
Audio: AC-3, 48 kHz, 2 channels, 192 kbps

The file has been uploaded to Google Drive.

Clear picture, no extraneous watermarks. No public screenshots (PM only).

Code:
General
ID                                       : 1 (0x1)
Complete name                            : 01. Olympique Lyonnais — AC Ajaccio (05.08.2022) (BT Sport 1 HD, 1080i).ts
Format                                   : MPEG-TS
File size                                : 13.4 GiB
Duration                                 : 1 h 56 min
Overall bit rate mode                    : Variable
Overall bit rate                         : 16.5 Mb/s

Video
ID                                       : 100 (0x64)
Menu ID                                  : 1 (0x1)
Format                                   : AVC
Format/Info                              : Advanced Video Codec
Format profile                           : High@L4
Format settings                          : CABAC / 4 Ref Frames
Format settings, CABAC                   : Yes
Format settings, Reference frames        : 4 frames
Codec ID                                 : 27
Duration                                 : 1 h 56 min
Bit rate                                 : 15.5 Mb/s
Width                                    : 1 920 pixels
Height                                   : 1 080 pixels
Display aspect ratio                     : 16:9
Frame rate                               : 25.000 FPS
Standard                                 : Component
Color space                              : YUV
Chroma subsampling                       : 4:2:0
Bit depth                                : 8 bits
Scan type                                : Interlaced
Scan type, store method                  : Separated fields
Scan order                               : Top Field First
Bits/(Pixel*Frame)                       : 0.298
Stream size                              : 12.6 GiB (94%)
Color range                              : Limited
Color primaries                          : BT.709
Transfer characteristics                 : BT.709
Matrix coefficients                      : BT.709

Audio
ID                                       : 200 (0xC8)
Menu ID                                  : 1 (0x1)
Format                                   : AC-3
Format/Info                              : Audio Coding 3
Commercial name                          : Dolby Digital
Codec ID                                 : 6
Duration                                 : 1 h 56 min
Bit rate mode                            : Constant
Bit rate                                 : 192 kb/s
Channel(s)                               : 2 channels
Channel layout                           : L R
Sampling rate                            : 48.0 kHz
Frame rate                               : 31.250 FPS (1536 SPF)
Compression mode                         : Lossy
Stream size                              : 160 MiB (1%)
Language                                 : English
Service kind                             : Complete Main
 
shape1
shape2
shape3
shape4
shape7
shape8
Top