What's new

Welcome to Download Forum

Join us now to get access to all our features. Once registered and logged in, you will be able to create topics, post replies to existing threads, give reputation to your fellow members, get your own private messenger, and so, so much more. It's also quick and totally free, so what are you waiting for?

Sell: Manchester United — Brighton & Hove Albion (07.08.2022) (MUTV HD, 1080i)

GambitDAL

New member
Normal Users
Joined
Jan 6, 2022
Messages
10
Reaction score
0
Points
3

Manchester United — Brighton & Hove Albion (07.08.2022)​


Only for sell. My record.

Channel: MUTV HD
Duration: 01:46:16
Size: 5.26 GB

Language: English

Video: H.264, 1920 × 1080i, 25 fps, ~6500 kbps (MBAFF)
Audio: AC-3, 48 kHz, 2 channels, 256 kbps

The file has been uploaded to Google Drive.



Code:
General
ID                                       : 1 (0x1)
Complete name                            : 01. Manchester United — Brighton & Hove Albion (07.08.2022) (MUTV HD, 1080i).ts
Format                                   : MPEG-TS
File size                                : 5.27 GiB
Duration                                 : 1 h 46 min
Overall bit rate mode                    : Variable
Overall bit rate                         : 7 094 kb/s

Video
ID                                       : 100 (0x64)
Menu ID                                  : 1 (0x1)
Format                                   : AVC
Format/Info                              : Advanced Video Codec
Format profile                           : High@L4
Format settings                          : CABAC / 4 Ref Frames
Format settings, CABAC                   : Yes
Format settings, Reference frames        : 4 frames
Format settings, GOP                     : M=4, N=32
Codec ID                                 : 27
Duration                                 : 1 h 46 min
Bit rate                                 : 6 485 kb/s
Width                                    : 1 920 pixels
Height                                   : 1 080 pixels
Display aspect ratio                     : 16:9
Frame rate                               : 25.000 FPS
Color space                              : YUV
Chroma subsampling                       : 4:2:0
Bit depth                                : 8 bits
Scan type                                : MBAFF
Bits/(Pixel*Frame)                       : 0.125
Stream size                              : 4.81 GiB (91%)
Color range                              : Limited
Color primaries                          : BT.709
Transfer characteristics                 : BT.709
Matrix coefficients                      : BT.709

Audio
ID                                       : 200 (0xC8)
Menu ID                                  : 1 (0x1)
Format                                   : AC-3
Format/Info                              : Audio Coding 3
Commercial name                          : Dolby Digital
Codec ID                                 : 6
Duration                                 : 1 h 46 min
Bit rate mode                            : Constant
Bit rate                                 : 256 kb/s
Channel(s)                               : 2 channels
Channel layout                           : L R
Sampling rate                            : 48.0 kHz
Frame rate                               : 31.250 FPS (1536 SPF)
Compression mode                         : Lossy
Stream size                              : 195 MiB (4%)
Language                                 : English
Service kind                             : Complete Main
 
shape1
shape2
shape3
shape4
shape7
shape8
Top