What's new

Welcome to Download Forum

Join us now to get access to all our features. Once registered and logged in, you will be able to create topics, post replies to existing threads, give reputation to your fellow members, get your own private messenger, and so, so much more. It's also quick and totally free, so what are you waiting for?

Sell: Chelsea — Tottenham Hotspur (14.08.2022) (Sky Sports UK, 1080i)

GambitDAL

New member
Normal Users
Joined
Jan 6, 2022
Messages
10
Reaction score
0
Points
3

Chelsea — Tottenham Hotspur (14.08.2022)​


Only for sell. My record.

Channel: Sky Sports Premier League
Duration: 02:51:05
Size: 8.61 GB

Language: English

Video: H.264, 1920 × 1080i, 25 fps, ~6500 kbps (MBAFF)
Audio: AC-3, 48 kHz, 2 channels, 384 kbps

The file has been uploaded to Google Drive.

Clear picture, no extraneous watermarks. No public screenshots (PM only).

Code:
General
ID                                       : 1 (0x1)
Complete name                            : 02. Chelsea — Tottenham Hotspur (14.08.2022) (Sky Sports Premier League, 1080i).ts
Format                                   : MPEG-TS
File size                                : 8.61 GiB
Duration                                 : 2 h 51 min
Overall bit rate mode                    : Variable
Overall bit rate                         : 7 209 kb/s

Video
ID                                       : 100 (0x64)
Menu ID                                  : 1 (0x1)
Format                                   : AVC
Format/Info                              : Advanced Video Codec
Format profile                           : High@L4
Format settings                          : CABAC / 4 Ref Frames
Format settings, CABAC                   : Yes
Format settings, Reference frames        : 4 frames
Codec ID                                 : 27
Duration                                 : 2 h 51 min
Bit rate                                 : 6 465 kb/s
Width                                    : 1 920 pixels
Height                                   : 1 080 pixels
Display aspect ratio                     : 16:9
Frame rate                               : 25.000 FPS
Color space                              : YUV
Chroma subsampling                       : 4:2:0
Bit depth                                : 8 bits
Scan type                                : MBAFF
Scan type, store method                  : Separated fields
Scan order                               : Top Field First
Bits/(Pixel*Frame)                       : 0.125
Stream size                              : 7.73 GiB (90%)
Color range                              : Limited
Color primaries                          : BT.709
Transfer characteristics                 : BT.709
Matrix coefficients                      : BT.709

Audio
ID                                       : 200 (0xC8)
Menu ID                                  : 1 (0x1)
Format                                   : AC-3
Format/Info                              : Audio Coding 3
Commercial name                          : Dolby Digital
Codec ID                                 : 6
Duration                                 : 2 h 51 min
Bit rate mode                            : Constant
Bit rate                                 : 384 kb/s
Channel(s)                               : 2 channels
Channel layout                           : L R
Sampling rate                            : 48.0 kHz
Frame rate                               : 31.250 FPS (1536 SPF)
Compression mode                         : Lossy
Stream size                              : 470 MiB (5%)
Language                                 : English
Service kind                             : Complete Main
 
shape1
shape2
shape3
shape4
shape7
shape8
Top