What's new

Welcome to Download Forum

Join us now to get access to all our features. Once registered and logged in, you will be able to create topics, post replies to existing threads, give reputation to your fellow members, get your own private messenger, and so, so much more. It's also quick and totally free, so what are you waiting for?

4K FEED - Paris Saint-Germain vs Juventus

Quadriga

Member
Normal Users
Joined
Jun 26, 2022
Messages
32
Reaction score
3
Points
8
PM if interested




Complete name : UCL.06.09.2022.Group H.Paris St Germain vs Juventus.Int.Sat feed.4K.4.2.2-10Bits.2160p.50fps.ts
Format : MPEG-TS
File size : 54.6 GiB
Duration : 3 h 20 min
Overall bit rate mode : Variable
Overall bit rate : 39.0 Mb/s

Video
ID : 512 (0x200)
Menu ID : 1 (0x1)
Format : HEVC
Format/Info : High Efficiency Video Coding
Format profile : Format Range@L5.1@Main
Codec ID : 36
Duration : 3 h 20 min
Bit rate : 33.5 Mb/s
Width : 3 840 pixels
Height : 2 160 pixels
Display aspect ratio : 16:9
Frame rate : 50.000 FPS
Standard : Component
Color space : YUV
Chroma subsampling : 4:2:2 (Type 2)
Bit depth : 10 bits
Bits/(Pixel*Frame) : 0.081
Stream size : 47.0 GiB (86%)
Color range : Limited
Color primaries : BT.709
Transfer characteristics : BT.709
Matrix coefficients : BT.709

Audio #1
ID : 4112 (0x1010)
Menu ID : 1 (0x1)
Format : MPEG Audio
Format version : Version 1
Format profile : Layer 2
Codec ID : 3
Duration : 3 h 20 min
Bit rate mode : Constant
Bit rate : 384 kb/s
Channel(s) : 2 channels
Sampling rate : 48.0 kHz
Frame rate : 41.667 FPS (1152 SPF)
Compression mode : Lossy
Delay relative to video : 4 ms
Stream size : 551 MiB (1%)
Language : German
Language, more info : Clean effects

Audio #2
ID : 4128 (0x1020)
Menu ID : 1 (0x1)
Format : MPEG Audio
Format version : Version 1
Format profile : Layer 2
Codec ID : 3
Duration : 3 h 20 min
Bit rate mode : Constant
Bit rate : 384 kb/s
Channel(s) : 2 channels
Sampling rate : 48.0 kHz
Frame rate : 41.667 FPS (1152 SPF)
Compression mode : Lossy
Delay relative to video : 4 ms
Stream size : 551 MiB (1%)
Language : German
Language, more info : Clean effects

Audio #3
ID : 189 (0xBD)-1 / 4144-1 / 4144 (0x1030)-1
Menu ID : 1 (0x1)
Format : Dolby E
Format settings : Little
Muxing mode : SMPTE ST 337 / SMPTE ST 302 / SMPTE ST 337
Codec ID : 6
Duration : 3 h 20 min
Bit rate mode : Constant
Bit rate : 1 291 kb/s
Channel(s) : 6 channels
Channel layout : L C Ls X R LFE Rs X
Sampling rate : 48.0 kHz
Frame rate : 25.000 FPS (1920 SPF)
Bit depth : 20 bits
Delay relative to video : 8 ms
Stream size : 1.81 GiB (3%)
Language : German
Language, more info : Clean effects

Audio #4
ID : 189 (0xBD)-2 / 4144-2 / 4144 (0x1030)-2
Menu ID : 1 (0x1)
Format : Dolby E
Format settings : Little
Muxing mode : SMPTE ST 337 / SMPTE ST 302 / SMPTE ST 337
Codec ID : 6
Duration : 3 h 20 min
Bit rate mode : Constant
Bit rate : 505 kb/s
Channel(s) : 2 channels
Channel layout : X X X L X X X R
Sampling rate : 48.0 kHz
Frame rate : 25.000 FPS (1920 SPF)
Bit depth : 20 bits
Delay relative to video : 8 ms
Stream size : 725 MiB (1%)
Language : German
Language, more info : Clean effects

Audio #5
ID : 4160 (0x1040)
Menu ID : 1 (0x1)
Format : MPEG Audio
Format version : Version 1
Format profile : Layer 2
Codec ID : 3
Duration : 3 h 20 min
Bit rate mode : Constant
Bit rate : 384 kb/s
Channel(s) : 2 channels
Sampling rate : 48.0 kHz
Frame rate : 41.667 FPS (1152 SPF)
Compression mode : Lossy
Delay relative to video : 4 ms
Stream size : 551 MiB (1%)
Language : German
Language, more info : Clean effects
 
shape1
shape2
shape3
shape4
shape7
shape8
Top